#TITLE:ZORRO (VI);
#SUBTITLE:MISSION HMX RE-EDIT;
#ARTIST:DJ ZORRO;
#TITLETRANSLIT:;
#SUBTITLETRANSLIT:;
#ARTISTTRANSLIT:;
#GENRE:;
#CREDIT:;
#BANNER:banner.png;
#BACKGROUND:bg.png;
#LYRICSPATH:;
#CDTITLE:cdtitle.png;
#MUSIC:zorro.mp3;
#OFFSET:0.803;
#SAMPLESTART:58.580;
#SAMPLELENGTH:12.000;
#SELECTABLE:YES;
#BPMS:0.000=150.000;
#STOPS:;
#DELAYS:;
#TIMESIGNATURES:0.000=4=4
;
#BGCHANGES:1.667=flipped.avi=1.000=0=0=1=====,
2.333=flipped.avi=1.000=0=0=1=====,
2.500=flipped.avi=1.000=0=0=1=====,
99999=-nosongbg-=1.000=0=0=0 // don't automatically add -songbackground-
;
#KEYSOUNDS:;
#ATTACKS:;
// cache tags:
#FIRSTBEAT:67.000;
#LASTBEAT:409.000;
#SONGFILENAME:/Songs/TechPara/Zorro VI/zorro.sm;
#HASMUSIC:1;
#HASBANNER:1;
#MUSICLENGTH:166.649;
// end cache tags

//---------------para-single - ----------------
#NOTES:
     para-single:
     :
     Challenge:
     9:
     0.226,0.429,0.156,0.240,0.087,198.000,26.000,40.000,0.000,0.000,0.000,0.000,-1.000,-1.000,0.226,0.429,0.156,0.240,0.087,198.000,26.000,40.000,0.000,0.000,0.000,0.000,-1.000,-1.000:
00000
00000
00000
00000
,
00000
00000
00000
00000
,
00000
00000
00000
00000
,
00000
00000
00000
00000
,
00000
00000
00000
00000
,
00000
00000
00000
00000
,
00000
00000
00000
00000
,
00000
00000
00000
00000
,
00000
00000
00000
00000
,
00000
00000
00000
00000
,
00000
00000
00000
00000
,
00000
00000
00000
00000
,
00000
00000
00000
00000
,
00000
00000
00000
00000
,
00000
00000
00000
00000
,
00000
00000
00000
00000
,
00000
00000
00000
00100
,
00000
00000
00000
00000
,
00000
00000
00000
00000
,
00000
00000
00000
00000
,
00000
00000
00000
00000
,
00000
00000
00000
00000
,
00000
00000
00000
00000
,
00000
00000
00000
00000
,
00000
00000
00000
00000
,
00000
00000
00000
00000
,
00000
00000
00000
00100
,
00010
00100
00001
00100
,
01000
00100
10000
00200
,
00300
00000
00000
00000
00010
00000
00000
00000
01000
00000
00000
00000
01000
00100
00010
00000
,
00010
00010
00100
00100
,
00010
00100
00001
00100
,
01000
00100
10000
00200
,
00300
00000
00000
00000
00010
00000
00000
00000
01000
00000
00000
00000
01000
00100
00010
00000
,
00010
00010
00100
00100
,
00010
00100
00001
00100
,
01000
00100
10000
00200
,
00300
00000
00000
00000
00010
00000
00000
00000
01000
00000
00000
00000
01000
00100
00010
00000
,
00010
00010
00100
00100
,
00010
00100
00001
00100
,
01000
00100
10000
00200
,
00300
00000
00000
00000
00010
00000
00000
00000
01000
00000
00000
00000
01000
00100
00010
00000
,
00010
00010
00100
00200
,
00000
00000
00300
02000
,
00000
00000
03000
00020
,
00000
00030
00000
02000
,
00000
03000
00000
00000
,
01000
10100
00010
00001
00000
00000
00000
00000
,
00000
00000
00000
00020
,
00000
00030
00000
02000
,
00000
03000
00000
00000
,
01000
10100
00010
00001
00000
00000
00000
00000
,
00000
00000
00000
00020
,
00000
00030
00000
02000
,
00000
03000
00000
00000
,
01000
10100
00010
00001
00000
00000
00000
00000
,
00000
00000
00000
00020
,
00000
00030
00000
02000
,
00000
03000
00000
00000
,
01000
10100
00010
00001
00000
00000
00000
00000
,
00000
00000
00000
00000
00000
00000
00000
00000
00000
00000
00000
00000
01000
00100
00010
00001
,
00000
00000
00000
00000
00010
00100
01000
10000
00000
00000
00000
00000
00000
00000
00000
00000
,
02020
03030
00000
00000
,
00000
00000
00000
00000
,
00000
00000
00000
00000
00000
00000
00000
00000
00000
00000
00000
00000
01000
00100
00010
00001
,
00000
00000
00000
00000
00010
00100
01000
10000
00000
00000
00000
00000
00020
00000
00000
00000
,
01030
00000
01010
00100
01010
00000
00000
00000
,
02020
00000
00000
00000
,
00000
00000
00000
00000
03030
00000
00000
00000
00000
00000
00000
00000
01000
00100
00010
00001
,
00000
00000
00000
00000
00010
00100
01000
10000
00000
00000
00000
00000
00000
00000
00000
00000
,
02020
00000
00000
00000
03030
00000
00000
00000
00000
00000
00000
00000
01000
00100
00010
00001
,
00000
00000
00000
00000
00010
00100
01000
10000
00000
00000
00000
00000
00000
00000
00000
00000
,
02020
03030
00000
00000
,
00010
00000
00000
00000
,
01000
00000
00000
00000
,
01010
00000
00000
00000
,
00200
00000
00300
00000
,
00000
00000
00000
02001
,
03000
00000
00000
10020
,
00030
00000
00000
00020
,
01030
00000
00000
00000
00000
00000
00000
00000
00000
00000
00000
00000
00100
01010
10001
00000
,
00000
00000
00000
02001
,
03000
00000
00000
10020
,
00030
00000
00000
00020
,
01030
00000
00000
00000
00000
00000
00000
00000
00000
00000
00000
00000
00100
01010
10001
00000
,
00000
00000
00000
02001
,
03000
00000
00000
10020
,
00030
00000
00000
00020
,
01030
00000
00000
00000
00000
00000
00000
00000
00000
00000
00000
00000
00100
01010
10001
00000
,
00000
00000
00000
02001
,
03000
00000
00000
10020
,
00030
00000
00000
00020
,
01030
00000
00000
10001
,
00000
00002
00000
00000
,
00000
00000
00000
00000
,
00003
00000
00000
00200
,
00300
00000
00000
00000
00010
00000
00000
00000
01000
00000
00000
00000
01000
00100
00010
00000
,
00010
00010
00100
00100
,
00010
00100
00001
00100
,
01000
00100
10000
00200
,
00300
00000
00000
00000
00010
00000
00000
00000
01000
00000
00000
00000
01000
00100
00010
00000
,
00010
00000
00000
00000
00000
00000
00000
00000
00010
00000
00100
00000
01000
00000
10000
00000
00000
00000
00000
00000
00000
00000
00000
00000
00100
00010
00002
00000
00000
00000
00000
00000
,
00000
00003
00000
00000
;
